Main menu

Search
Login
Signup
Links
<< Previous thread | Next thread >>   
Cos'è il file .cue

Author Post
domino
Fri 05 Dec 2008 - 11:23

online
Registered Member #9897
Joined: Fri 21 Mar 2008 - 17:57
Location: Milano
Posts: 600

Ciao a tutti, spesso, su questo forum ma anche in giro per la rete, si legge o si sente parlare di file .cue, in questa discussione cercherò di spiegarlo in modo chiaro e comprensibile. Prima di tutto è un file modificabile con un normale editor testuale, il blocco note di windows va più che bene, al suo interno sono riportate informazioni quali, nome dell'artista, titolo del cd ma sopratutto ci sono i "marcatori delle tracce", questi ultimi, nel caso di masterizzazione di un file unico, indicano al lettore quando inizia la traccia1, la traccia 2 e così via, in questo modo sarà possibile "saltare" da una traccia all'altra, altrimenti avremmo una singola e lunga traccia 1. Detto questo andiamo a vedere come è composto un file .cue di un cd dello stesso artista.
PERFORMER "titolo dell'artista"
TITLE "titolo del cd"
FILE "nome del file compresa estensione" estensione senza punto
TRACK 01 AUDIO invariato
TITLE "titolo traccia 1"
INDEX 01 00:00:00 <--- min. sec. e frame dell'inizio della traccia 1
TRACK 02 AUDIO invariato
TITLE "titolo traccia 2"
INDEX 01 00:00:00 <--- min. sec. e frame dell'inizio della traccia 2
TRACK 03 AUDIO invariato
TITLE "titolo traccia 3"
INDEX 01 00:00:00 <--- min. sec. e frame dell'inizio della traccia 3
vediamo l'esempio sopra in pratica:
PERFORMER "Marillion"
TITLE "Fugazi"
FILE "CD Image.flac" FLAC
TRACK 01 AUDIO
TITLE "Assassing"
INDEX 01 00:00:00
TRACK 02 AUDIO
TITLE "Punch & Judy"
INDEX 01 07:02:00
TRACK 03 AUDIO
TITLE "Jigsaw"
INDEX 01 10:23:37
Alcune note importantissime, alla riga FILE, la 3a in questo caso, bisogna inserire esattamente il nome del file con estensione, altrimenti il file restituirà un errore in fase di lettura da parte del player (Foobar2000 per esempio). Le virgolette " " vanno sempre tenute.

Abbiamo visto la struttura del file .cue, ora vediamo a cosa serve.

  • Dividere il file unico in tracce singole.
    Quando siamo in possesso di un file audio unico la prima cosa che viene in mente è dividerlo in singole tracce, questa procedura può essere estremamente semplice se siamo in possesso del file .cue attraverso programmi come CUESplitter, mp3DirectCut o simili, procedura che avviene in 1 minuto circa. Ma la divisione delle tracce può andare bene per un cd dove le tracce iniziano e finiscono col silenzio, caso diverso per un concerto Live, dove ci sono gli applausi all'inizio e alla fine, in questo caso bisognerà intervenire manualmente su ciascuna traccia divisa con programmi tipo mpTrim che danno la possibilità di inserire il fade-in (silenzio all'inizio) e fade-out (silenzio alla fine), questo se la necessità è quella di archiviare i file.

  • Masterizzare il file unico con la possibilità di spostarsi tra le tracce.
    Se invece il risultato finale è quello di masterizzare allora programmi come Burrrn (non portatile) supportano il Drag and drop (trascinamento e rilascio) del file .cue all'interno del programma.

  • Dove reperire il file .cue
    Una risorsa molto valida in rete è sicuramente Cuesheet Heaven dove è possibile cercare, all'interno di un vasto database, il .cue di riferimento del proprio cd, testandolo con Foobar2000. Se il .cue non è presente nel database non resta che costruirlo a mano, quello che serve è un player che visualizzi il tempo della traccia, X-VideoLAN è uno di questi, basta visualizzare in basso a destra del player l'inizio di ogni traccia e inserirlo nella riga INDEX 01 di ogni traccia (es. 07:02:00), riportando i minuti (a sinistra) e i secondi (al centro) per i frame (a destra) mettere pure a 00, fare questo per ogni traccia.

Spero di essere stato chiaro e comprensibile, per ogni dubbio e/o domanda sono a disposizione per altri chiarimenti.

[ Edited Fri 05 Dec 2008 - 12:05 ]
Back to top
dito
Sat 17 Oct 2009 - 08:31

online
Registered Member #11533
Joined: Sat 31 May 2008 - 09:32
Posts: 196
e se si volessero unire due file .cue relativi a due file wav per poi poterli masterizzare in un cd?
i file wav credo si possano unire con audacity, ma i .cue? copia e incolla?
grazie
dito
Back to top
domino
Sat 17 Oct 2009 - 16:36

online
Registered Member #9897
Joined: Fri 21 Mar 2008 - 17:57
Location: Milano
Posts: 600
dito wrote ...

e se si volessero unire due file .cue relativi a due file wav per poi poterli masterizzare in un cd?
i file wav credo si possano unire con audacity, ma i .cue? copia e incolla?
grazie
dito

La procedura è questa: unisci i file audio, dopodiché fai copia e incolla (come hai scritto sopra) dei file cue, rammenta che ogni INDEX (segnalati sotto dalle frecce) corrisponde all'inizio di ogni brano.
PERFORMER "Marillion"
TITLE "Fugazi"
FILE "CD Image.flac" FLAC
TRACK 01 AUDIO
TITLE "Assassing"
INDEX 01 00:00:00 <-----------------------------------
TRACK 02 AUDIO
TITLE "Punch & Judy"
INDEX 01 07:02:00 <-----------------------------------
TRACK 03 AUDIO
TITLE "Jigsaw"
INDEX 01 10:23:37 <-----------------------------------
Back to top
dito
Sat 17 Oct 2009 - 23:34

online
Registered Member #11533
Joined: Sat 31 May 2008 - 09:32
Posts: 196
grazie domino
dito
Back to top

Moderators: Danix, Taf, Rcs, Energy, zandet2, ZioZione, Admin, LordJim60

Jump:     Back to top

Syndicate this thread: rss 0.92 Syndicate this thread: rss 2.0 Syndicate this thread: RDF
Powered by e107 Forum System